zoiIndy, ZoiIndY, โหลดmp3, อ่านการตูน, โหลดการตูน,Naruto แปลไทย, โหลดเพลงฟรี โหลดเพลงmp3ฟรี ดาวน์โหลดเพลงฟรี vampire mp3 โหลดเพลงใหม่ฟรี โหลดเพลงmp3ฟรี vampire mp3 ดาวน์โหลดเพลงฟรี ดาวน์โหลดเพลงmp3 mp3 vampires ซอยอินดี้,
 
บ้านCalendarGalleryช่วยเหลือค้นหารายชื่อสมาชิกกลุ่มผู้ใช้สมัครสมาชิก(Register)เข้าสู่ระบบ(Log in)
ค้นหา
 
 

Display results as :
 
Rechercher Advanced Search
เข้าสู่ระบบ(Log in)
Username:
Password:
เข้าสู่ระบบโดยอัตโนมัติทุกครั้ง(Log in automatically): 
:: ลืม(forget) password
โฆษณา
Latest topics
» Bleach 312 sub thai BY GangLoad.net and levelsquare
by sekkung Thu Apr 04, 2013 11:09 am

» [Full Album] Various Artists Grammy - Simply Emotion @320Kbps Rip iTunes10
by mongchoo Thu Jan 24, 2013 4:05 pm

» Naruto Shippuuden ภาคโต ตั้งแต่ตอน 192-201 | Sub Thai | Update 200 !!!! |
by loadusmovie Tue Oct 23, 2012 1:23 pm

» Naruto Shippuuden ตอนที่ 201 - การตัดสินใจที่แสนเจ็บปวด [720p][Sub Thai]
by puccanoii Sun Aug 19, 2012 9:38 am

» [Monkeybaby] One Piece 486 SubTHAI [mediafire]
by aod563121 Fri Aug 17, 2012 6:04 pm

» One Piece ตอนที่ 488 [360p/720p] [ Sub THAI ] [Mediafire]
by classicchamp Thu Jul 19, 2012 9:39 am

» Sultans of the South (2007) ปล้นซ้อนปล้นโคตรคนอันตราย [Jumbofiles][VCD Master][พากย์ไทย]
by liberte Wed Jul 18, 2012 12:51 pm

» Six Days Seven Nights (1998) 7 คืนหาดสวรรค์ 6 วันอันตราย [Jumbofiles][VCD Master][พากย์ไทย]
by liberte Wed Jul 18, 2012 12:40 pm

» I Now Pronounce You Chuck and Larry (2007) คู่เก๊วิวาห์ป่าเดียวกัน [Jumbofiles][VCD Master][พากย์ไทย]
by liberte Wed Jul 18, 2012 12:30 pm

» Battle Los Angeles (2011) วันยึดโลก [SendSpace][HD][Audio Thai-Eng]
by liberte Wed Jul 18, 2012 12:15 pm

Keywords
seed H264 bleach album 720p Karaoke mission 2011 Mediafire OnePiece taxi love Movie potato dragon mild naruto rider ตอนที่ piece impossible reborn kamen THAI Team Gundam
เรื่องเสียวประสบการณ์เสียวเสียวรูปโป๊

Share | 
 

 [Mini-HD] Cars(2006)BluRay 720p DTS [พากย์ไทย/อังกฤษ][ซับไทย]

อ่านหัวข้อก่อนหน้า อ่านหัวข้อถัดไป Go down 
ผู้ตั้งข้อความ
Zoiindy
Admin
Admin


จำนวนโพส : 345
หลงเข้ามาวันที่ : 04/12/2010
อายุ : 21
สัตว์เลี้ยงของฉัน :

ตั้งหัวข้อเรื่อง: [Mini-HD] Cars(2006)BluRay 720p DTS [พากย์ไทย/อังกฤษ][ซับไทย]   Sun Feb 20, 2011 5:40 pm





Cars(2006)BluRay 720p DTS By princo13.mkv
Format : Matroska
File size : 3.69 GiB
Duration : 1h 56mn
Overall bit rate : 4 534 Kbps
Video #1
ID : 1
Format : AVC
Duration : 1h 56mn
Bit rate : 1 910 Kbps
Nominal bit rate : 2 000 Kbps
Width : 1 280 pixels
Height : 528 pixels
Frame rate : 23.976 fps
Stream size : 1.55 GiB (42%)
Audio #2
ID : 2
Format : AC-3
Codec ID : A_AC3
Duration : 1h 56mn
Bit rate : 384 Kbps
Stream size : 320 MiB (8%)
Title : Eng ac3
Audio #3
ID : 3
Format : AC-3
Duration : 1h 56mn
Bit rate : 640 Kbps
Stream size : 534 MiB (14%)
Title : thai By princo13
Language : Thai
Audio #4
ID : 4
Format : DTS
Format/Info : Digital Theater Systems
Codec ID : A_DTS
Duration : 1h 56mn
Bit rate : 1 510 Kbps
Stream size : 1.23 GiB (33%)
Title : Eng DTS
Text #5
ID : 5
Format : VobSub
Codec ID : S_VOBSUB
Codec ID/Info : The same subtitle format used on DVDs
Title : thai By princo13
Language : Thai
Text #6
ID : 6
Format : UTF-8
Codec ID : S_TEXT/UTF8
Codec ID/Info : UTF-8 Plain Text
Title : Eng


แม็คควีน ไลท์เทนนิง (พากย์เสียงโดยโอเวน วิลสัน) รถแข่งใหม่ซิงร้อนฉ่าที่มีความสำเร็จเป็นแรงขับเคลื่อน แต่เขาก็ได้เรียนรู้ว่า ชีวิตเป็นเรื่องของการเดินทาง ไม่ใช่เส้นชัย เมื่อเขาพบว่าตัวเองต้องวิ่งทางอ้อมตามเส้นทางรู้ท 66 ที่นำไปสู่เรดิเอเตอร์ สปริงส์ ระหว่างการเดินทางข้ามประเทศไปเพื่อเข้าแข่งขันรายการพิสตัน คัพ แชมเปียนชิพในแคลิฟอร์เนียเพื่อประชันความเร็วกับรถแข่งเก๋าเกมสองคัน แม็คควีนก็มีโอกาสได้รู้จักเหล่ารถน่ารัก น่าเอ็นดูของเมืองนี้ ซึ่งประกอบไปด้วย ด็อค ฮัดสัน (รถฮัดสัน ฮอร์เน็ตปี 1951 ที่มีอดีตลึกลับ พากย์เสียงโดยพอล นิวแมน นักแสดงในตำนาน), แซลลี คาร์เรรา (รถปอร์เชสุดเฉียบปี 2002 พากย์เสียงโดยบอนนี ฮันท์) และ เมเตอร์ (รถลากเก่าสนิมเขรอะ พากย์เสียงโดยแลร์รี เดอะ เคเบิล กาย) ที่ช่วยให้เขารู้ว่า ยังมีสิ่งอื่นที่สำคัญยิ่งไปกว่าถ้วยรางวัล ชื่อเสียง และการได้รับการสนับสนุน



Cars(2006)BluRay_720p_DTS_By_princo13.mkv.001
Cars(2006)BluRay_720p_DTS_By_princo13.mkv.002
Cars(2006)BluRay_720p_DTS_By_princo13.mkv.003
Cars(2006)BluRay_720p_DTS_By_princo13.mkv.004
Cars(2006)BluRay_720p_DTS_By_princo13.mkv.005
Cars(2006)BluRay_720p_DTS_By_princo13.mkv.006
Cars(2006)BluRay_720p_DTS_By_princo13.mkv.007
Cars(2006)BluRay_720p_DTS_By_princo13.mkv.008
Cars(2006)BluRay_720p_DTS_By_princo13.mkv.009
Cars(2006)BluRay_720p_DTS_By_princo13.mkv.010
Cars(2006)BluRay_720p_DTS_By_princo13.mkv.011
Cars(2006)BluRay_720p_DTS_By_princo13.mkv.012
Cars(2006)BluRay_720p_DTS_By_princo13.mkv.013
Cars(2006)BluRay_720p_DTS_By_princo13.mkv.014
Cars(2006)BluRay_720p_DTS_By_princo13.mkv.015
Cars(2006)BluRay_720p_DTS_By_princo13.mkv.016
Cars(2006)BluRay_720p_DTS_By_princo13.mkv.017
Cars(2006)BluRay_720p_DTS_By_princo13.mkv.018
Cars(2006)BluRay_720p_DTS_By_princo13.mkv.019

วิธีการรวมไฟล์.001,.002,.003ด้วยโปรแกรม hjsplit
การตั้งค่าโปรแกรม IDM ให้โหลดไฟล์ 001,002,003

99.99% NO PART ERROR

1.หนังผมทำเอง ทั้งโมดิฟายการหาวัตถุดิบ จะเน้นความคมชัด ไม่ซ้ำใคร
2.ท่านที่บ่นว่าGUshareโหลดยาก ท่านสามารถโหลดทีละ3พาท และไม่ต้องรอ40นาทีได้
3.ตรงนี้สำคัญ ก่อนท่านจะโหลดโปรดอ่านที่เม้นโพสสักนิด

พิเศษ ผมเพิ่มเสียงทั้ง ac3 DTS และพากย์ไทยac3 มาให้หมด เพื่อคุณภาพอย่างแท้จริง

_____________________________________________


เราจะย้ายเวปแล้วน่ะคับ

[url]http://www.dek-zaa.net/ <<< บอร์ดใหม่

[url]http://www.dek-zaa.net/ [/url] <<<< บอร์ดใหม่

[/url]






โหลดหนัง, โหลดการ์ตูน, โหลดเพลง, ไทย ต่างประเทศ,โหลดโปรแกรม, โหลด Naruto, Subthai
ขึ้นไปข้างบน Go down
http://www.dek-zaa.net
 
[Mini-HD] Cars(2006)BluRay 720p DTS [พากย์ไทย/อังกฤษ][ซับไทย]
อ่านหัวข้อก่อนหน้า อ่านหัวข้อถัดไป ขึ้นไปข้างบน 
หน้า 1 จาก 1

Permissions in this forum:คุณไม่สามารถพิมพ์ตอบ
ZoiIndY [ สังคมของเราคือการแบ่งปัน ] 2011 Season 1 :: ..::: ZoiIndY Movie Download :::.. :: ..::: [ [HD] [Hidef] [Bluray] & [DVD] ] ห้องแจกทั้งไทยและต่างประเทศ :::..-
ไปที่:  

 free web counter Counter Powered by  RedCounter
dns failure
site stats
Google bot last visit powered by Scriptme Yahoo bot last visit powered by Scriptme Msn bot last visit powered by Scriptme
หาเงินออนไลน์,หาเงินผ่านเน็ต,หาเงิน
Free forum | © phpBB | Free forum support | ติดต่อ | Report an abuse | Sosblogs